Скачать через торрент Starcraft 2: NASL - North American StarLeague: Week 5 & 6 Игра для ПК (PC) бесплатно torrent

Статистика раздачи
Размер:  35.41 GB   |    Зарегистрирован:  7 лет 2 месяца   |    .torrent скачан:  77 раз   |   
Раздают:  1  
   
загрузка...
 
Автор Сообщение

L


NASL 2011 - Season 1

Год выпуска: 2011
Разработчик: Blizzard
Продолжительность: ...
Субтитры: нет
Язык озвучки: Английский
Качество: HDTV
Формат: FLV
Информация о видео: MPEG4 Video (H264) 1920x1080
Информация о аудио: MPEG Audio Layer 3 44100Hz stereo 128Kbps

Описание: The North American Star league was established to foster the prominence of esports and professional Starcraft 2 play in North America through highly visible organized and invigorating competition
It is the North American Star League. $400,000 in prizes over the course of three seasons. 16 man finals. Fifty of the best players in the world playing in five different divisions.
Week5 - Day1
Match 1 - Morrow VS Fenix - not played
Match 2 - KiWiKaKi VS Sheth
Match 3 - Artosis VS ViBe
Match 4 - TLO VS Grubby
Match 5 - Moon VS Rainbow
[color=red]Week5 - Day2
Match 1 - SjoW VS MoMaN
Match 2 - iNcontroL VS TT1
Match 3 - CrunCher VS Ensnare
Match 4 - Darkforce VS White-Ra
Match 5 - QXC VS July
Week5 - Day3
Match 1 - HayprO VS NaDa
Match 2 - Axslav VS HayprO
Match 3 - Strelok VS mOOnGLaDe
Match 4 - KawaiiRice VS NaDa
Match 5 - Slush VS dde
Match 6 - Squirtle VS Naniwa
Week5 - Day4
Match 1 - HasuObs VS Brat_OK
Match 2 - Goody VS Machine
Match 3 - MC VS Stalife
Match 4 - KawaiiRice VS NaDa
Match 5 - SeleCT VS Ret
Week5 - Day5
Match 1 - Socke VS Drewbie
Match 2 - PainUser VS Tyler - not played
Match 3 - Zenio VS Cloud
Match 4 - Boxer VS MaNa
Match 5 - Sen VS IdrA
[/color]
Week6 - Day1
Match 1 - TLO VS KiWiKaKi
Match 2 - Grubby VS Artosis
Match 3 - ViBe VS Morrow
Match 4 - Moon VS Sheth
Match 5 - Fenix VS Rainbow
[color=red]Week6 - Day2
Match 1 - QXC VS Ensnare
Match 2 - MoMaN VS iNcontroL
Match 3 - SjoW VS CrunCher
Match 4 - July VS Darkforce
Match 5 - TT1 VS White-Ra
Week6 - Day3
Match 1 - Strelok VS dde
Match 2 - Squirtle VS Slush
Match 3 - mOOnGLaDe VS HayprO
Match 4 - KawaiiRice VS Axslav
Match 5 - Naniwa VS NaDa
Week6 - Day4
Match 1 - ACE VS SeleCT
Match 2 - CatZ VS Stalife
Match 3 - Ret VS Machine
Match 4 - Goody VS Brat_OK
Match 5 - MC VS HasuObs
Week6 - Day5
Match 1 - Sen VS Tyler
Match 2 -
Match 3 - Boxer VS Socke - not played
Match 4 - Cloud VS MaNa
Match 5 - IdrA VS Zenio
[/color]
General
Complete name : E:\Download\NASL 2011 - Season 1\5. Week5\Day1\NASL2011_W5_Day1_M5_Moon VS Rainbow_Part1.flv
Format : Flash Video
File size : 364 MiB
Duration : 18mn 0s
Overall bit rate : 2 825 Kbps

Video
Format : AVC
Format/Info : Advanced Video Codec
Format profile : [email protected]
Format settings, CABAC : Yes
Format settings, ReFrames : 3 frames
Codec ID : 7
Duration : 18mn 0s
Bit rate mode : Constant
Bit rate : 2 700 Kbps
Width : 1 920 pixels
Height : 1 080 pixels
Display aspect ratio : 16:9
Frame rate mode : Constant
Frame rate : 1 000.000 fps
Original frame rate : 30.000 fps
Standard : NTSC
Color space : YUV
Chroma subsampling : 4:2:0
Bit depth : 8 bits
Scan type : Progressive
Bits/(Pixel*Frame) : 0.001
Stream size : 332 MiB (91%)

Audio
Format : MPEG Audio
Format version : Version 1
Format profile : Layer 3
Mode : Joint stereo
Mode extension : MS Stereo
Codec ID : 2
Codec ID/Hint : MP3
Duration : 18mn 0s
Bit rate mode : Constant
Bit rate : 128 Kbps
Channel(s) : 2 channels
Sampling rate : 44.1 KHz
Compression mode : Lossy
Delay relative to video : 15ms
Stream size : 16.5 MiB (5%)


Трекер:  [ 01-Окт-2011 20:35 ]

  

Скачать .torrent

Размер .torrent файла 184 KB


Размер: 35.41 GB
Хэш (hash) релиза: d5132952b0f7bb1ba6ca27bd0c273f4a8614f483
Подписка на обновления:

Еще никто не оставлял запись к записи скачать торрент Starcraft 2: NASL - North American StarLeague: Week 5 & 6 . Будь первым!

!Обратная связь