Скачать через торрент Гоголь. Страшная месть Фильм бесплатно в хорошем качестве torrent

Скачивайте на UnionPeer.org фильмы через торрент без регистрации. Новинки кино в хорошем качестве через торрент. На UnionPeer.org можно скачать через торрент фильмы 2014 и 2015 годов. Самые новые фильмы.

Скачать торрент Гоголь. Страшная месть бесплатно через .torrent фильм мультфильм сериал

Статистика раздачи
Размер:  1.46 GB   |    Зарегистрирован:  14 дней   |    .torrent скачан:  220 раз   |   
Раздают:  1  
   
загрузка...
 
Автор Сообщение

Galfimbul

avatar Galfimbul


Информация о фильме
Гоголь. Страшная месть



[b]Год выхода:
2018
Жанр: Детектив, приключения, триллер
Режиссер: Егор Баранов
В ролях: Александр Петров, Олег Меньшиков, Евгений Стычкин, Артем Сучков, Таисия Вилкова, Юлия Франц, Ян Цапник, Евгений Сытый, Сергей Бадюк, Артем Ткаченко

О фильме:
Две сотни лет назад малороссийские хутора разоряла шайка нехристей-ляхов во главе с могущественным колдуном. С тех пор рыщет в окрестностях Диканьки неизвестный Чёрный Всадник, ловит молодых девушек и жестоко расправляется с ними, будто мстит за что. И следующей его жертвой может стать Лиза. Чтобы спасти возлюбленную, писарь Николай Гоголь должен разбить злые чары и победить древнее проклятье. Ни одному из смертных ещё не удавалось это, но к счастью, на помощь Гоголю приходит гениальный столичный сыщик Яков Гуро, и у него уже есть главный подозреваемый...



Страна: Россия
Студия: Продюсерская компания «Среда»
Продолжительность: 01:46:38
Перевод: Не требуется | iTunes
Субтитры: нет

Файл
Формат: avi
Качество: WEB-DLRip
Видео: XviD build 73, 720x304 (2.35:1), 23.976 fps, ~ 1560 Kbps (~ 0.297 bit/pixel)
Звук: 48.0 kHz, AC3, 5/1 ch, 384 kbps
General
Complete name : D:RazdachiGogolj.Strashnaja.Mestj.2018.XviD.WEB-DLRip.GeneralFilm.avi
Format : AVI
Format/Info : Audio Video Interleave
File size : 1.46 GiB
Duration : 1 h 46 min
Overall bit rate : 1 954 kb/s
Writing application : VirtualDubMod 1.5.10.3 | www.virtualdub-fr.org || (build 2550/release)
Writing library : VirtualDubMod build 2550/release

Video
ID : 0
Format : MPEG-4 Visual
Format profile : Advanced [email protected]
Format settings, BVOP : 1
Format settings, QPel : No
Format settings, GMC : No warppoints
Format settings, Matrix : Custom
Codec ID : XVID
Codec ID/Hint : XviD
Duration : 1 h 46 min
Bit rate : 1 560 kb/s
Width : 720 pixels
Height : 304 pixels
Display aspect ratio : 2.35:1
Frame rate : 23.976 (24000/1001) FPS
Color space : YUV
Chroma subsampling : 4:2:0
Bit depth : 8 bits
Scan type : Progressive
Compression mode : Lossy
Bits/(Pixel*Frame) : 0.297
Stream size : 1.16 GiB (80%)
Writing library : XviD 73

Audio
ID : 1
Format : AC-3
Format/Info : Audio Coding 3
Format settings, Endianness : Big
Codec ID : 2000
Duration : 1 h 46 min
Bit rate mode : Constant
Bit rate : 384 kb/s
Channel(s) : 6 channels
Channel positions : Front: L C R, Side: L R, LFE
Sampling rate : 48.0 kHz
Frame rate : 31.250 FPS (1536 SPF)
Bit depth : 16 bits
Compression mode : Lossy
Stream size : 293 MiB (20%)
Alignment : Split accross interleaves
Interleave, duration : 42 ms (1.00 video frame)
Interleave, preload duratio : 500 ms
Service kind : Complete Main
Релиз от:
Источник http://BlaTor.org

Трекер:  [ 10-Окт-2018 01:00 ]

  

Скачать .torrent

Размер .torrent файла 15 KB


Размер: 1.46 GB
Хэш (hash) релиза: 4717dfd8bf80bd67d4e8e9de3fe3357f5956b6e1
Подписка на обновления:

Торренты, похожие на Гоголь. Страшная месть скачать торрент

Форум Название Автор Размер S L Добавлен
Российские фильмы 2016-2018 (Новинки русского кино) ·%· Гоголь. Страшная месть (2018) WEB-DLRip от Scarabey | iTunes Galfimbul 15464878081.44 GB 0 0 1539198738

22:12

10-Окт-18

Российские фильмы 2016-2018 (Новинки русского кино) ·%· Гоголь. Страшная месть (2018) WEB-DLRip от ExKinoRay Galfimbul 782278656746 MB 0 0 1539181944

17:32

10-Окт-18

Российские фильмы 2016-2018 (Новинки русского кино) ·%· Гоголь. Страшная месть (2018) WEB-DLRip от Generalfilm | КПК | iTunes Galfimbul 425059989405 MB 0 0 1539159183

11:13

10-Окт-18

Российские фильмы 2016-2018 (Новинки русского кино) ·%· Гоголь. Страшная месть (2018) WEB-DLRip-AVC | iTunes Galfimbul 779460869743 MB 0 0 1539148851

08:20

10-Окт-18

Российские фильмы 2016-2018 (Новинки русского кино) ·%· Гоголь. Страшная месть (2018) WEB-DLRip-AVC от ExKinoRay | iTunes Galfimbul 17646944781.64 GB 0 0 1539141069

06:11

10-Окт-18

Российские фильмы 2016-2018 (Новинки русского кино) ·%· Гоголь. Страшная месть (2018) WEB-DL 1080p | iTunes Galfimbul 39057538893.64 GB 0 0 1539114015

22:40

9-Окт-18

Еще никто не оставлял запись к записи скачать торрент Гоголь. Страшная месть . Будь первым!

!Обратная связь